Take the 2-minute tour ×
Super User is a question and answer site for computer enthusiasts and power users. It's 100% free, no registration required.

I have just installed foobar2000 to play my new album (In a folder there are over 30 flac files, a cue file and other stuff) but it couldn't play the cue file.
However, it can play single or multiple flac files without any issues.

error message

Unable to open item for playback (Object not found):
"C:\Users\Emrehan\Music\Glenn Gould - Bach - Goldberg Variations, BWV988 (1981 Version) [flac]\JS Bach- Goldberg Variations, BWV988 (1981 Version).cue" / index: 1

Unable to open item for playback (Object not found):
"C:\Users\Emrehan\Music\Glenn Gould - Bach - Goldberg Variations, BWV988 (1981 Version) [flac]\JS Bach- Goldberg Variations, BWV988 (1981 Version).cue" / index: 2

Unable to open item for playback (Object not found):
"C:\Users\Emrehan\Music\Glenn Gould - Bach - Goldberg Variations, BWV988 (1981 Version) [flac]\JS Bach- Goldberg Variations, BWV988 (1981 Version).cue" / index: 3

Unable to open item for playback (Object not found):
"C:\Users\Emrehan\Music\Glenn Gould - Bach - Goldberg Variations, BWV988 (1981 Version) [flac]\JS Bach- Goldberg Variations, BWV988 (1981 Version).cue" / index: 4

cue file

REM GENRE Classical
REM DATE 1981
REM DISCID D50C0520
REM COMMENT "ExactAudioCopy v0.99pb4"
PERFORMER "Glenn Gould"
TITLE "JS Bach- Goldberg Variations, BWV988 (1981 Version)"
FILE "Glenn Gould\JS Bach- Goldberg Variations, BWV988 (1981 Version)\01--Aria.wav" WAVE
  TRACK 01 AUDIO
    TITLE "Aria"
    PERFORMER "Glenn Gould"
    INDEX 01 00:00:00
FILE "Glenn Gould\JS Bach- Goldberg Variations, BWV988 (1981 Version)\02--Variation 1 a 1 
Clav..wav" WAVE
  TRACK 02 AUDIO
    TITLE "Variation 1 a 1 Clav."
    PERFORMER "Glenn Gould"
    INDEX 01 00:00:00
FILE "Glenn Gould\JS Bach- Goldberg Variations, BWV988 (1981 Version)\03--Variation 2 a 1 
Clav..wav" WAVE
  TRACK 03 AUDIO
    TITLE "Variation 2 a 1 Clav."
    PERFORMER "Glenn Gould"
    INDEX 01 00:00:00
FILE "Glenn Gould\JS Bach- Goldberg Variations, BWV988 (1981 Version)\04--Variation 3 a 1 
Clav. Canone all'Unisono.wav" WAVE
  TRACK 04 AUDIO
    TITLE "Variation 3 a 1 Clav. Canone all'Unisono"
    PERFORMER "Glenn Gould"
    INDEX 01 00:00:00
share|improve this question
add comment

2 Answers 2

I see for example this

FILE "Glenn Gould\JS Bach- Goldberg Variations, BWV988 (1981 Version)\03--Variation 2 a 1 Clav..wav" WAVE

do you see it ends with 2 dots? try to replace all the ..wav to .wav, it should work.

share|improve this answer
    
i tried but it don't work. –  Emrehan Dec 2 '12 at 7:14
1  
the main problem here is the name file+extention in the description inside the cue file. It has to match exactly the file name between the cue and the real file you have.I'm thinking, if those are flac files, substitute the .wav with .flac it should work. they have to match, remember that. –  TweakFix Dec 2 '12 at 14:37
add comment

The problem is index numbers.
Every one 00:00:00

Cue Sample

TRACK 06 AUDIO
 TITLE "XY"
    PERFORMER "XY"
    INDEX 00 22:27:37
    INDEX 01 22:29:19
share|improve this answer
add comment

Your Answer

 
discard

By posting your answer, you agree to the privacy policy and terms of service.

Not the answer you're looking for? Browse other questions tagged or ask your own question.