Take the 2-minute tour ×
Super User is a question and answer site for computer enthusiasts and power users. It's 100% free, no registration required.

Is there any command to check the video bitrate of a flv file in debian/ubuntu ? I have some flv files and I want to find out their video bitrate.

I check 'file' command It only says 'Macromedia Flash Video' but no more information.

Thank you.

share|improve this question

1 Answer 1

up vote 1 down vote accepted

Use ffmpeg:

ffmpeg -i filename.flv

Look for:

Input #0, flv, from 'The Veronicas - Hook Me Up.flv':
  Metadata:
    starttime       : 0
    totalduration   : 179
    totaldatarate   : 841
    bytelength      : 18910448
    canseekontime   : true
    purl            : 
    pmsg            : 
  Duration: 00:02:59.39, start: 0.000000, bitrate: 843 kb/s
    Stream #0:0: Video: h264 (Main), yuv420p,
        640x480 [SAR 1:1 DAR 4:3], 726 kb/s, 23.98 tbr, 1k tbn, 47.95 tbc
    Stream #0:1: Audio: aac, 44100 Hz, stereo, fltp, 128 kb/s
share|improve this answer
    
Wow, Thank you. That's it. –  hd. Mar 28 '13 at 17:52

Your Answer

 
discard

By posting your answer, you agree to the privacy policy and terms of service.

Not the answer you're looking for? Browse other questions tagged or ask your own question.