1

I'm currently in the midst of digitising my VHS cassettes with OBS Studio. I've set the Video Capture Device to 25 FPS but it still records at 1000 FPS taking up horrendous amounts of disk space. I've also set the FPS in Settings > Video.

enter image description here

$ ffmpeg -i 2018-02-27\ 12-20-54.mkv
Input #0, matroska,webm, from '2018-02-27 12-20-54.mkv':
  Metadata:
    ENCODER         : Lavf57.83.100
  Duration: 00:05:01.72, start: 0.000000, bitrate: 21528 kb/s
    Stream #0:0: Video: h264 (High), yuv420p(progressive), 1920x1080, 1k fps, 25 tbr, 1k tbn, 50 tbc (default)
    Metadata:
      DURATION        : 00:05:01.720000000
    Stream #0:1: Audio: aac (LC), 48000 Hz, stereo, fltp (default)
    Metadata:
      title           : Track1
      DURATION        : 00:05:01.632000000

I know I can re-encode the video and set the FPS to 25 but is there a more permanent solution to this?

1

This is a known bug when recordings are saved as MKV format and its documented in the OBS forums . If you want to decrease the output size, then you might want to decrease your bit rate in video settings.

Your Answer

By clicking "Post Your Answer", you acknowledge that you have read our updated terms of service, privacy policy and cookie policy, and that your continued use of the website is subject to these policies.

Not the answer you're looking for? Browse other questions tagged or ask your own question.