7

How can I get metadata, such as frame rate, resolution, audio and video bitrate, from a video file? Can this data be obtained from players like VLC and Media Player Classic?

7

Most players will have a way of giving this information. It may also be provided by the OS, depending on which one you are using (Windows 7 shows it in the status pane).

In any case, what you can do is to install a shell-extension like MediaInfo to give you this information on demand.

| improve this answer | |
  • I use command line medainfo – barlop Oct 29 '19 at 14:01
3

I did use older versions of Super software for this

It has come to my attention that Super Software has malware bundled with the software so there is a better alternative called MediaInfo which does the same thing. Once installed right click on the video file and select MediaInfo. When it opens select View>Tree to see all the information.

.

enter image description here .

| improve this answer | |
  • 1
    used to be popular, but got bundled with malware at some point. forums.tomsguide.com/threads/… and somebody recently pointed out "you cant choose to NOT install this[malware]" – barlop Oct 29 '19 at 13:59
  • perhaps you could put an old version on archive.org The oldversion website used to be good – barlop Oct 29 '19 at 18:52
  • 'super' and mediainfo don't do the same thing. Mediainfo provides info, 'super' was often used for converting video files and also provided info. – barlop Oct 29 '19 at 19:34
  • You can say that both pieces of software do what the user wants, but to say that they do the same thing is ambiguous and unclear, as it sounds like a broader statement. – barlop Oct 30 '19 at 1:41
  • An answer should answer a question, but if an answer e.g. says windows was invented in 1998 it sounds like they are saying that windows was invented in 1998, not that oh the question only asked about a particular windows version so the answer just referred to that particular windows version. And those unfamiliar with windows pre 1998 may think you aren't just talking about a particular version. Similarly, if a question asked about win7, and an answer says windows existed long before 1998. If somebody interpreted that in the specific way you suggest then it would be wrong. – barlop Oct 30 '19 at 13:16
2

With ffmpeg comes ffprobe

$ ffprobe -show_data -hide_banner xyz.mp4 
Input #0, mov,mp4,m4a,3gp,3g2,mj2, from 'xyz.mp4':
  Metadata:
    major_brand     : mp42
    minor_version   : 0
    compatible_brands: isommp42
    creation_time   : 2017-04-26T19:36:24.000000Z
    com.android.version: 8.0.0
  Duration: 00:00:51.81, start: 0.000000, bitrate: 14257 kb/s
    Stream #0:0(eng): Video: h264 (High) (avc1 / 0x31637661), yuv420p(tv, bt709), 1920x1080, 13936 kb/s, SAR 1:1 DAR 16:9, 24.58 fps, 50 tbr, 90k tbn, 180k tbc (default)
    Metadata:
      rotate          : 270
      creation_time   : 2017-04-26T19:36:24.000000Z
      handler_name    : VideoHandle
    Side data:
      displaymatrix: rotation of 90.00 degrees
    Stream #0:1(eng): Audio: aac (LC) (mp4a / 0x6134706D), 48000 Hz, stereo, fltp, 256 kb/s (default)
    Metadata:
      creation_time   : 2018-05-26T19:36:24.000000Z
      handler_name    : SoundHandle
| improve this answer | |
1

Be warned that the answer that advices installing the SUPER program from http://www.erightsoft.com, that the free version comes bundles with a bunch of adware programs, like browser toolbars, surfing adds and whatnot. What worse is you cant choose to NOT install this bullshit and the installer dont mention anything about this except borrowed deep down in the usage aggreement (you have to skip past tons of legal mumble jumble to get to the part that explains that the install will install browser toolbars and various add programs on your pc).

I recommend not download or installing this adware program. With such practices in the free version I wouldnt want to support the company with the paid version, let alone trust them.

| improve this answer | |
  • don't say "above mentioned...program" (super by erightsoft), when the answer above may not mention it..(right now the answer above your does not mention it). An answer mentioning t may be elsewhere in the thread, or the answer may even be removed as it mentions a program full of malware. As of wrting, the accepted answer is above yours and that's fine. It mentions a good program. – barlop Oct 29 '19 at 14:27
  • @barlop Then how do you suggest I refer to above mentioned program Super? (im honestly interested knowing how to do it correctly). The Super program by erightsoft is filled with adware, surf toolbars and all kinds of nasty crap that silently gets installed on your pc during installation. And you can not select to NOT install it (and as mentioned you dont even get notified about it). I think a stern warning about that program is very warranted. The only reason I discovered this was during the installation my anti-malware program blocked those installations and notified me about it. – jspgr Nov 3 '19 at 13:34
  • @barlop I edited my answer, is it better to your liking now? – jspgr Nov 3 '19 at 13:37
  • yes I stated the issue with what you wrote and you fixed it, so it's better now – barlop Nov 3 '19 at 19:17
0

Synetech mentions mediainfo shell extension.. I've often used mediainfo command line

it exists for windows or linux.. here is an example image.

enter image description here

ffmpeg -i inputfile.mp4 also shows some info that may be relevant.

I use mediainfo a lot to show the container codec, the video codec, and the audio codec. And you see frame rate and bit rate.

| improve this answer | |

Your Answer

By clicking “Post Your Answer”, you agree to our terms of service, privacy policy and cookie policy

Not the answer you're looking for? Browse other questions tagged or ask your own question.