17

I want a FFmpeg seeking command that fast and accurate. I found this.

The solution is that we apply -ss for both input (fast seeking) and output (accurate seeking). But: If the input seeking is not accurate, how can we be sure that the seeking position is accurate?


For example: If we wanted to seek to 00:03:00, the command is something like:

ffmpeg -ss 00:02:30 -i <INPUT> ... -ss 00:00:30 <OUTPUT>

The first -ss will seek to somewhere else, not 00:02:30, say 00:02:31. And after applying the second seek, the final result would be 00:03:01- not what we want. Is that correct?

Where does the first -ss seek to? Does it seek to the keyframe that is closest to 00:02:30?

If so, here is my thought—correct me if I'm wrong: after first seeking, we get the timestamp of the result (in this example: 00:02:31), then we apply second seeking with appropriate time, in this case 00:00:29.

Question is: How do we get time stamp of the first seek result?

18

To literally answer your title's question: You can get a list of I-frames with

ffprobe -select_streams v -show_frames <INPUT> 

You can further limit this to the necessary output by adding -show_entries frame=pkt_pts_time,pict_type.

To see which frame is closest (comes after) a certain timestamp, you'd first need to find out all timestamps of the keyframes, for example with awk.

First, define the time you want to look for, e.g., 2:30m which equals to 150s.

ffprobe -select_streams v -show_frames -show_entries frame=pkt_pts_time,pict_type -v quiet in.mp4 | 
awk -F= ' 
  /pict_type=/ { if (index($2, "I")) { i=1; } else { i=0; } } 
  /pkt_pts_time/ { if (i && ($2 >= 150)) print $2; }  
' | head -n 1

For example, this would return 150.400000.


Note that when using -ss before -i, FFmpeg will locate the keyframe previous to the seek point, then assign negative PTS values to all following frames up until it reaches the seek point. A player should decode but not display frames with negative PTS, and the video should start accurately.

Some players do not properly respect this and will display black video or garbage. In this case, the above script can be used to find the PTS of the keyframe after your seek point, and use that to start seeking from the keyframe. This, however, will not be accurate.

Note that if you want to be super accurate while seeking—and retain compatibility with many players—you should probably convert the video to any lossless, intra-only format, where you could cut at any point, and then re-encode it. But this will not be fast.

  • 1
    thanks, I'm not making a video editor, but i do want to have precise video seeking in which the gap should less than 0,5 seconds. – jackode Feb 20 '13 at 8:41
  • 1
    You can probably juggle around with the PTS from ffprobe. If not, any intermediate format would do, e.g. ProRes 422, DNxHD, which are visually lossless and intra-frame only. Or you use something like HuffYUV, etc. But then you'd lose the "fast" aspect again, of course. – slhck Feb 20 '13 at 8:44
  • what version of ffprobe did you use for the command, because mine said Unrecognized option 'select_streams' – jackode Feb 22 '13 at 3:55
  • 2
    You were close, the select_streams option was added in October 2012. :) You could do without that but then you'd get information for audio frames as well, mixed in between. – slhck Feb 22 '13 at 8:21
  • 2
    Note you can add this the ffmpeg line to let it only output the necessary 2 fields, instead of a lot of stuff that gets thrown away by awk: -show_entries frame=pkt_pts_time,pict_type – Jannes Feb 28 '15 at 22:24
6

I understand this question is several years old, but the latest version of ffprobe has the ability to skip frames. You can pass in -skip_frame nokey to report info only on the key frames (I-frames). This can save you a lot of time! On a 2GB 1080p MP4 file it used to take 4 minutes without the skip frames. Adding the skip paramter it only takes 20 seconds.

Command:

ffprobe -select_streams v -skip_frame nokey -show_frames -show_entries frame=pkt_pts_time,pict_type D:\test.mp4

Results:

[FRAME]
pkt_pts_time=0.000000
pict_type=I
[/FRAME]
[FRAME]
pkt_pts_time=3.753750
pict_type=I
[/FRAME]
[FRAME]
pkt_pts_time=7.507500
pict_type=I
[/FRAME]
[FRAME]
pkt_pts_time=11.261250
pict_type=I
[/FRAME]
[FRAME]
pkt_pts_time=15.015000
pict_type=I
[/FRAME]

So the results will only contain info regarding the key frames.

0

if you want to get information of the I frames, you can use

ffprobe -i input.mp4 -v quiet -select_streams v -show_entries frame=pkt_pts_time,pict_type|grep -B 1 'pict_type=I'

Your Answer

By clicking “Post Your Answer”, you agree to our terms of service, privacy policy and cookie policy

Not the answer you're looking for? Browse other questions tagged or ask your own question.